#TITLE:Mendes;
#SUBTITLE:The last target;
#ARTIST:Unknown artist;
#TITLETRANSLIT:;
#SUBTITLETRANSLIT:;
#ARTISTTRANSLIT:;
#CREDIT:;
#BANNER:mendes.jpg;
#BACKGROUND:mendes-bg.jpg;
#LYRICSPATH:;
#CDTITLE:mendes.png;
#MUSIC:mendes.ogg;
#OFFSET:0.000;
#SAMPLESTART:100.000;
#SAMPLELENGTH:12.000;
#SELECTABLE:YES;
#BPMS:0.000=168.000,111.000=84.000,112.000=168.000,121.000=84.000,122.000=168.000,133.000=84.000,136.000=42.000,137.000=84.000,161.000=168.000,209.000=84.000,211.000=168.000,269.000=84.000,271.000=168.000,271.500=84.000,271.625=168.000;
#STOPS:;
#BGCHANGES:;
// cache tags:
#FIRSTBEAT:4.000;
#LASTBEAT:280.000;
#SONGFILENAME:Songs/Music V.I.P ^_^/Mendes/mendes.sm;
#HASMUSIC:1;
#HASBANNER:1;
#MUSICLENGTH:116.103;
// end cache tags

//---------------dance-single - ----------------
#NOTES:
     dance-single:
     :
     Hard:
     21:
     1.000,1.000,1.000,0.345,1.000,860.000,239.000,40.000,0.000,49.000:
0000
0000
0000
0000
,
1100
0010
0001
0010
0100
0010
0001
0010
0100
0010
0001
0010
0100
0010
0001
0010
,
0100
0010
0001
0010
0100
0010
0001
0010
1000
0100
0001
0010
0001
0100
0010
0100
,
1000
0010
0001
0010
1000
0010
0001
0010
1000
0010
0001
0010
1000
0010
0001
0010
,
1100
0010
0101
0010
1100
0010
0101
0010
1001
0100
0011
1000
0011
0100
1010
0001
,
1100
0010
0001
0010
0100
0010
0001
0010
0100
0010
0001
0010
0100
0010
0001
0010
,
0100
0010
0001
0010
0100
0010
0001
0010
1000
0100
0001
0010
1001
0100
0010
0100
,
1001
0010
0001
0010
1000
0010
0001
0010
1100
0010
0001
0010
1000
0010
0001
0010
,
1100
0010
0001
0010
1100
0010
0001
0010
1001
0100
0010
1000
0001
0100
0010
1000
,
0101
0010
0101
1000
0011
0100
1010
0100
1000
0010
0100
0000
1001
0010
0100
0000
,
1000
0010
0100
0000
1001
0010
0100
0000
1000
0010
0100
0000
1001
0010
0100
0000
,
1000
0011
0100
0000
1001
0010
0100
0000
1000
0010
0100
0000
1001
0010
0100
0000
,
1000
0010
0100
0000
1001
0010
0100
0000
1000
0010
0101
0000
1001
0010
0100
0001
,
1000
0011
0100
0000
1001
0010
0101
0000
1000
0010
0100
0000
1001
0010
0100
0000
,
1000
0010
0100
0000
1001
0010
0100
0000
1000
0010
0100
0000
1001
0010
0100
0000
,
1000
0011
0100
0000
1001
0010
0100
0000
1000
0010
0100
0000
1001
0010
0100
0000
,
1000
0010
0100
0000
1001
0010
1100
0000
1000
0010
1101
0000
0001
0010
0100
0001
,
1000
0001
0000
0000
1010
0000
1010
0000
1001
0010
0100
0010
1001
0010
0100
0010
,
1001
0010
0100
0010
1001
0010
0100
0010
1001
0100
0010
0100
1001
0100
0010
0100
,
1001
0100
0010
0100
1001
0100
0010
0100
1001
0010
0001
0010
1001
0100
0001
0100
,
1001
0010
0001
0010
1001
0100
0001
0100
1001
0100
0010
0100
1001
0100
0010
0100
,
1001
0100
0010
0100
1001
0100
0010
0100
1001
0010
0100
0010
1001
0010
0100
0010
,
1001
0010
0100
0010
1001
0010
0100
0010
1100
0001
0100
0010
1100
0001
0100
0010
,
1100
0001
0100
0010
1100
0001
0100
0010
1100
0001
0100
0001
1010
0001
0010
0001
,
1100
0010
0100
0010
1100
0001
1100
0010
1001
0010
1100
0001
0010
0001
0100
0010
,
1100
0001
0000
0000
1001
0000
1001
0000
0110
0000
0110
0000
1011
0000
0000
0000
,
1011
0000
1110
1110
0000
1110
0000
0111
,
1110
0000
0000
0000
1110
0000
0000
0000
0000
0000
0000
0000
0111
0000
0000
0000
0111
0000
0000
0000
1110
0000
0000
0000
0001
0010
0100
1000
0100
0010
0001
1000
,
0110
0110
1011
0000
1011
0000
1110
1110
,
0000
1110
0000
0111
1110
1110
0000
0111
,
0111
0000
0000
0000
1110
0000
0000
0000
0001
0010
0100
1000
0001
0010
0100
1000
0011
0000
1000
0000
0011
0000
0100
0000
1001
0000
0100
0000
0011
0000
0100
0000
,
0011
1000
0101
1000
0011
0100
0011
1000
0101
0010
0101
1000
0011
1000
0101
0010
,
1001
0110
1001
0110
1001
0110
1001
0110
1001
0110
1001
0110
2002
0000
0000
0000
,
0000
0000
0000
0000
,
3203
0000
0000
0000
0000
0000
0000
0320
0000
0000
0000
0000
1031
0000
0100
0000
0010
0000
0001
0000
0100
0000
0010
0000
1000
0000
0010
0000
0100
0000
0001
0000
1000
0000
0100
0000
0002
0000
0000
0000
0000
0000
0000
0000
0000
0000
0003
0000
,
0220
0000
0000
0000
0000
0330
1000
0010
0100
0001
1000
0100
0010
1000
0001
0100
0010
1000
0002
0000
0000
0000
0000
0003
,
0220
0000
0000
0000
0000
0330
0001
0010
0100
0010
0100
1000
0100
0010
0001
1000
0010
0100
0002
0000
0000
0000
0000
0003
,
2020
0000
0000
0000
0000
3030
0100
0010
0001
1000
0100
0010
1000
0010
0100
0001
1000
0100
0020
0000
0000
0000
0000
0030
,
0202
0000
0000
0000
0000
0000
0000
0000
0000
0000
0000
0000
0000
0000
0000
0000
0000
0000
0000
0000
0000
0000
0000
0000
0000
0000
0000
0000
0000
0000
0000
0000
0000
0000
0000
0000
0000
0000
0000
0000
0303
0000
0000
0000
0000
0000
0000
0000
1011
0000
0000
0000
0000
0000
0100
0000
0000
0000
0000
0000
0001
0000
0000
0000
0000
0000
0000
0000
0000
0000
0000
0000
0100
0000
0000
0000
0000
0000
0000
0000
0000
0000
0000
0000
0001
0000
0000
0000
0000
0000
0000
0000
0000
0000
0000
0000
0010
0000
0000
0000
0000
0000
0100
0000
0000
0000
0000
0000
0001
0000
0000
0000
0000
0000
0000
0000
0000
0000
0000
0000
1100
0000
0000
0000
0000
0000
0000
0000
0000
0000
0000
0000
0001
0000
0000
0000
0000
0000
0000
0000
0000
0000
0000
0000
1010
0000
0000
0000
0000
0000
0100
0000
0000
0000
0000
0000
0001
0000
0000
0000
0000
0000
0000
0000
0000
0000
0000
0000
0100
0000
0000
0000
0000
0000
0000
0000
0000
0000
0000
0000
0001
0000
0000
0000
0000
0000
0000
0000
0000
0000
0000
0000
,
1010
0100
0001
0000
0110
0000
0001
0000
0111
1000
0010
0000
1000
0000
0010
0000
0101
1000
0010
0100
1000
0000
0011
0000
1100
0000
1010
0000
0000
0000
0000
0000
,
0220
0000
0000
0330
1001
0000
0100
0000
1010
0000
0102
0000
1000
0000
0010
0000
,
1000
0000
0100
0000
1000
0000
0113
0000
1010
0000
0101
0000
1001
0010
0100
0000
,
1100
0110
1001
0110
1010
0102
1000
0010
,
1000
0000
0103
0000
1001
0000
0100
0000
1110
0000
0000
0010
1100
0010
0000
0000
,
1011
0100
1010
0011
1100
0021
1000
0100
,
1000
0000
0001
0000
1100
0000
0031
0000
1010
0000
0100
0000
1010
0001
0100
0000
,
1101
0010
1001
0100
1010
0102
1000
0010
,
1000
0000
1103
0000
1220
0000
1000
0000
0000
0000
0330
0000
1022
0100
0000
0000
,
1100
0000
1133
0000
1020
0000
0100
0000
1000
0000
0001
0030
1100
0000
0001
0010
,
1000
0000
0101
0000
1020
0000
0001
0000
1000
0000
0001
0000
1230
0001
0010
0000
,
1001
0000
0010
0300
1022
0000
0100
0000
1000
0000
0133
0000
1200
0000
0001
0320
,
1000
0000
0132
0000
1113
0000
0010
0000
1001
0000
0000
0001
1000
0010
1000
0000
,
0100
0000
0100
0000
0000
0000
0000
0000
0020
0000
1131
0000
0010
1000
0100
1000
,
0001
1000
0010
0100
0001
0100
0010
1000
0010
0100
0001
0010
0001
0100
0010
1000
,
0001
0100
0010
1000
0010
1000
0100
1000
0001
1000
0010
0100
0001
0100
0010
1000
,
0010
0100
0001
0010
0001
0100
0010
1000
0001
0100
0010
1000
0010
1000
0100
1000
,
0001
1000
0010
0100
0001
0100
0010
1000
0010
0100
0001
0010
0001
0100
0010
1000
,
0001
0100
0010
1000
0010
1000
0100
1000
0001
1000
0010
0100
0001
0100
0010
1000
,
0010
0100
0001
0010
0001
0100
0010
1000
0001
0100
0010
1000
0011
1000
0110
1000
,
0101
1000
0011
0100
1001
0100
0011
1000
0011
0100
1001
0010
1001
0100
0011
1000
,
0011
0100
0011
1000
0110
1000
0101
1000
0011
0100
1010
0100
1001
0100
0011
1000
,
1010
0100
1001
0010
1001
0100
0011
1000
0011
0100
1010
0100
0011
1000
0110
1000
,
0101
1000
0011
0100
1001
0100
0011
1000
0011
0100
1001
0010
1001
0100
0011
1000
,
0011
0100
0011
1000
0110
1000
0101
1000
0011
0100
1010
0100
1001
0100
0011
1000
,
1010
0100
1001
0010
1001
0100
0011
1000
0011
0100
1010
0100
1001
0100
1000
0100
,
0010
0100
0010
0100
0001
1000
0001
1000
0010
0100
0001
1000
0010
0100
0001
1000
,
0010
0100
0001
0010
1000
0010
0001
0100
0010
1000
0010
0100
0001
1000
0010
0100
,
0002
0000
0000
2003
,
0222
0000
0000
0000
,
0000
0000
0000
0000
,
3333
0000
0000
0000
;
